zaterdag 4 november 2017

DVD - Deep Purple live in Cuyahoga Falls 2017 - 1DVD - September 9

Sept. 9, 2017
Deep Purple
Blossom Music Center,
Cuyahoga Falls, OH
INCOMPLETE!!!!!!!!!!!!!!!!!

Panasonic DMC-ZS8>PC>YOU
MASTER COPY Jbarrowsrn

Highway Star
Fireball
Strange Kind of Woman
Uncommon Man MISSING
Lazy MISSING
Knocking at Your Back Door
Pictures of Home MISSING
Keyboard Solo MISSING
Perfect Strangers
Space Truckin'
Time for Bedlam MISSING
Hush
Smoke on the Water

I ended up with good seats for this
show and unfortunately my batteries
that I thought were recently charged
were not. So, I ended up taping all
of Edgar, none of Alice Cooper and most
of Deep Purple. Sad because 2 of the
songs played tonight are in my top 10
favorites of all time. HAd to stand the
whole Deep Purple set so probably shaky
at times but overall good. SOrry about
the missing songs but had to tape
Edgar Winter and I timed it pretty good.

Specs are as follows:

General
Format : MPEG-4
Format profile : QuickTime
Codec ID : qt 2007.09.04 (qt /pana)
File size : 1.20 GiB
Overall bit rate mode : Variable
Overall bit rate : 25.2 Mb/s
Writing library : pana
IsTruncated : Yes

Video
ID : 1
Format : JPEG
Codec ID : jpeg
Bit rate mode : Variable
Bit rate : 24.9 Mb/s
Width : 1 280 pixels
Height : 720 pixels
Display aspect ratio : 16:9
Frame rate mode : Constant
Frame rate : 30.000 FPS
Color space : YUV
Chroma subsampling : 4:2:0
Bit depth : 8 bits
Compression mode : Lossy
Bits/(Pixel*Frame) : 0.902
Stream size : 1.19 GiB (99%)


Audio
ID : 2
Format : PCM
Format settings, Endianness : Big
Format settings, Sign : Signed
Codec ID : twos
Bit rate mode : Constant
Bit rate : 256 kb/s
Channel(s) : 1 channel
Sampling rate : 16.0 kHz
Bit depth : 16 bits
Stream size : 12.5 MiB (1%)

Download part 1 here
Download part 2 here
Download part 3 here
Download part 4 here
Download part 5 here
Download part 6 here
Download part 7 here
Download part 8 here
Download part 9 here
Download part 10 here
                       

Geen opmerkingen:

Een reactie posten