zaterdag 4 november 2017

DVD - Def Leppard live in Rio de Janeiro 2017 - 1DVD - September 21 - pro-shot

Artist:
Def Leppard

Show or Bootleg Title:
2017-09-21 - Rock In Rio, Rio de Janeiro, Brazil

Source:
Video - Pro Shot


Audio/Video Specs:
Video
ID : 224 (0xE0)
Format : MPEG Video
Format version : Version 2
Format profile : Main@Main
Format settings, BVOP : No
Format settings, Matrix : Default
Format settings, GOP : N=18
Bit rate mode : Variable
Bit rate : 5 972 Kbps
Maximum bit rate : 9 000 Kbps
Width : 720 pixels
Height : 480 pixels
Display aspect ratio : 16:9
Frame rate : 29.970 (30000/1001) fps
Standard : NTSC
Color space : YUV
Chroma subsampling : 4:2:0
Bit depth : 8 bits
Scan type : Progressive
Compression mode : Lossy
Bits/(Pixel*Frame) : 0.577
Time code of first frame : 00:00:00:00
Time code source : Group of pictures header
GOP, Open/Closed : Open
GOP, Open/Closed of first frame : Closed
Stream size : 852 MiB (85%)

Audio #1
ID : 189 (0xBD)-128 (0x80)
Format : AC-3
Format/Info : Audio Coding 3
Mode extension : CM (complete main)
Format settings, Endianness : Big
Muxing mode : DVD-Video
Bit rate mode : Constant
Bit rate : 448 Kbps
Channel(s) : 6 channels
Channel positions : Front: L C R, Side: L R, LFE
Sampling rate : 48.0 KHz
Frame rate : 31.250 fps (1536 spf)
Compression mode : Lossy
Stream size : 63.9 MiB (6%)

Audio #2
ID : 189 (0xBD)-129 (0x81)
Format : AC-3
Format/Info : Audio Coding 3
Mode extension : CM (complete main)
Format settings, Endianness : Big
Muxing mode : DVD-Video
Bit rate mode : Constant
Bit rate : 448 Kbps
Channel(s) : 2 channels
Channel positions : Front: L R
Sampling rate : 48.0 KHz
Frame rate : 31.250 fps (1536 spf)
Compression mode : Lossy
Stream size : 63.9 MiB (6%)


Setlist/Chapters:
01. Let's Go
02. Animal
03. Let It Go
04. Love Bites
05. Armageddon It
06. Man Enough
07. Rocket
08. Bringin' on the Heartbreak
09. Switch 625
10. Hysteria
11. Let's Get Rocked
12. Pour Some Sugar On Me
13. Rock of Ages
14. Photograph
15. Interview

Download part 1 here
Download part 2 here
Download part 3 here
Download part 4 here
Download part 5 here
                         

Geen opmerkingen:

Een reactie posten